<?xml version="1.0" encoding="UTF-8" standalone="no"?> <!-- Creator: CorelDRAW 2019 (64-Bit) --> <svg xmlns:dc="http://purl.org/dc/elements/1.1/" xmlns:cc="http://creativecommons.org/ns#" xmlns:rdf="http://www.w3.org/1999/02/22-rdf-syntax-ns#" xmlns:svg="http://www.w3.org/2000/svg" xmlns="http://www.w3.org/2000/svg" xmlns:sodipodi="http://sodipodi.sourceforge.net/DTD/sodipodi-0.dtd" xmlns:inkscape="http://www.inkscape.org/namespaces/inkscape" xml:space="preserve" width="263.43839" height="120" style="clip-rule:evenodd;fill-rule:evenodd;image-rendering:optimizeQuality;shape-rendering:geometricPrecision;text-rendering:geometricPrecision" viewBox="0 0 6933.2899 3158.2192" id="svg1527" sodipodi:docname="autrade-stavby-a-inziniering-logo.svg" inkscape:version="0.92.4 (f8dce91, 2019-08-02)"><metadata id="metadata1531"></metadata> <defs id="defs1367"> <font id="FontID1" font-variant="normal" font-style="normal" font-weight="400" vert-origin-x="45" vert-origin-y="90" vert-adv-y="90" style="font-style:normal;font-variant:normal;font-weight:400"> <glyph unicode="," d="M78.9921 -117.008c28,46.9921 72,158.016 95.0236,243.024l-98.0157 -10.0157c-10.9921,-73.0079 -37.9843,-180 -60,-238.992l62.9921 5.98425z" id="glyph1199"></glyph> <glyph unicode="-" d="M30.0157 302.992l0 -64.9764 246.992 0 0 64.9764 -246.992 0z" id="glyph1201"></glyph> <glyph unicode="." d="M110.992 -10.9921c37.0079,0 60,26.9921 60,62.9921 0,37.0079 -24,62.9921 -58.9921,62.9921 -34.9921,0 -60,-25.9843 -60,-62.9921 0,-36 24,-62.9921 58.9921,-62.9921z" id="glyph1203"></glyph> <glyph unicode="1" d="M236 0l85.0079 0 0 650.016 -74.9921 0 -142.016 -76 17.0079 -67.0236 113.008 61.0079 1.98425 0 0 -568z" id="glyph1205"></glyph> <glyph unicode="2" d="M460 0l0 73.0079 -292 0 0 1.98425 52 48c137.008,132 224,229.008 224,349.008 0,93.0079 -58.9921,189.008 -198.992,189.008 -74.9921,0 -138.992,-28 -184,-66.0157l28 -61.9843c29.9843,25.0079 78.9921,54.9921 137.984,54.9921 97.0079,0 129.008,-61.0079 129.008,-126.992 -1.00787,-98.0157 -76,-182.016 -241.984,-340l-69.0079 -66.9921 0 -54.0157 414.992 0z" id="glyph1207"></glyph> <glyph unicode="4" d="M400 0l0 177.008 90.9921 0 0 69.0079 -90.9921 0 0 404 -94.9921 0 -290.016 -415.024 0 -57.9843 302.016 0 0 -177.008 82.9921 0zm-296 246.016l0 1.98425 158.992 221.008c18.0157,29.9843 34.0157,57.9843 54.0157,96l2.99213 0c-1.98425,-34.0157 -2.99213,-68 -2.99213,-102.016l0 -216.976 -213.008 0z" id="glyph1209"></glyph> <glyph unicode="8" d="M254.992 -10.9921c124,0 221.008,76 221.008,189.008 0,78.9921 -49.9843,136 -130.992,168l0 2.99213c80,37.9843 106.992,97.0079 106.992,152 0,81.0079 -62.9921,160 -189.008,160 -113.984,0 -200.976,-70.0157 -200.976,-173.008 0,-56 30.9921,-112 102.992,-145.984l1.00787 -3.02362c-80,-33.9843 -129.008,-92 -129.008,-173.984 0,-94.9921 81.9843,-176 217.984,-176zm2.01575 64c-82.9921,0 -133.008,57.9843 -130.016,124 0,61.9843 41.0079,112 117.008,133.984 88,-24.9764 142.992,-62.9921 142.992,-141.984 0,-66.9921 -50.9921,-116 -129.984,-116zm1.00787 545.008c78.9921,0 109.984,-54.0157 109.984,-106.016 0,-58.9921 -42.9921,-98.9921 -98.9921,-117.984 -74.9921,20 -124,54.9921 -124,120 0,56 40,104 113.008,104z" id="glyph1211"></glyph> <glyph unicode="9" d="M96 -10.0157c21.0079,-0.976378 49.0079,0 81.0079,5.00787 69.9843,8 138.992,38.0157 189.008,87.0236 64,61.9843 112,161.984 112,304.976 0,166.016 -82.0157,274.016 -215.024,274.016 -132.976,0 -221.984,-108 -221.984,-230.992 0,-111.024 74.9921,-199.024 192,-199.024 65.0079,0 117.008,26.0157 153.008,70.0157l2.99213 0c-12,-77.0079 -42.9921,-134.016 -86.0157,-173.008 -36.9764,-34.9921 -84.9764,-56 -136,-62.9921 -29.9843,-2.99213 -52,-5.00787 -70.9921,-2.99213l0 -72.0315zm160 604.031c92,0 133.008,-85.0079 133.008,-196 0,-14.0157 -2.99213,-24 -8,-32 -22.9921,-39.0236 -69.0079,-68 -128,-68 -76,0 -125.008,56.9764 -125.008,137.984 0,92 53.0079,158.016 128,158.016z" id="glyph1213"></glyph> <glyph unicode=":" d="M110.992 342.016c37.0079,0 60,26.9921 60,61.9843 -0.976378,37.0079 -24,62.9921 -58.9921,62.9921 -34.9921,0 -60,-25.9843 -60,-62.9921 0,-34.9921 24,-61.9843 58.9921,-61.9843zm0 -353.008c37.0079,0 60,26.9921 60,61.9843 -0.976378,37.0079 -24,63.0236 -58.9921,63.0236 -34.9921,0 -60,-26.0157 -60,-63.0236 0,-34.9921 24,-61.9843 58.9921,-61.9843z" id="glyph1215"></glyph> <glyph unicode="@" d="M448 254.992c-10.9921,-61.9843 -64,-136 -121.984,-136 -44,0 -66.0157,32 -66.0157,76 0,97.0079 70.9921,180 158.992,180 23.0236,0 40,-4 50.0157,-6.99213l-21.0079 -113.008zm60 -276c-41.0079,-22.9921 -93.9843,-34.9921 -150.992,-34.9921 -148,0 -257.008,102.992 -257.008,270.016 0,202.992 137.008,332 300,332 154.992,0 242.016,-104 242.016,-249.008 0,-116 -57.0079,-184 -108,-182.992 -33.0079,0.976378 -45.0079,36 -30.0157,112l34.0157 180.976c-26.0157,12 -64,21.0079 -107.024,21.0079 -138.992,0 -236.976,-113.008 -236.976,-237.008 0,-78.9921 49.9843,-125.984 108,-125.984 60,0 105.984,29.0079 140.976,88l4 0c-2.99213,-61.0079 34.0157,-88 74.0157,-88 93.9843,0 177.984,88 177.984,237.984 0,167.024 -116.976,289.008 -290.992,289.008 -221.984,0 -365.008,-177.984 -365.008,-384 0,-192 139.024,-312 303.024,-312 66.9921,0 122.992,10.9921 177.984,40l-16 42.9921z" id="glyph1217"></glyph> <glyph unicode="A" d="M424 212l72 -212 93.0079 0 -230.016 674.016 -104.976 0 -229.008 -674.016 89.9843 0 70.0157 212 238.992 0zm-221.008 68l66.0157 194.992c13.0079,41.0079 24,82.0157 33.9843,122.016l2.01575 0c9.98425,-38.9921 20,-78.9921 34.9921,-122.992l66.0157 -194.016 -203.024 0z" id="glyph1219"></glyph> <glyph unicode="B" d="M76 2.01575c29.0079,-4.0315 74.9921,-8.0315 134.992,-8.0315 110.016,0 186.016,20.0315 233.008,63.0236 34.0157,33.0079 57.0079,77.0079 57.0079,134.992 0,100 -74.9921,153.008 -138.992,169.008l0 1.98425c70.9921,26.0157 113.984,83.0236 113.984,148 0,53.0079 -21.0079,93.0079 -56,119.024 -41.9843,33.9843 -97.9843,48.9764 -185.008,48.9764 -60.9764,0 -120.976,-5.98425 -158.992,-13.9843l0 -662.992zm86.9921 604c14.0157,2.99213 37.0079,5.98425 77.0079,5.98425 88,0 148,-30.9921 148,-109.984 0,-65.0079 -53.9843,-113.008 -145.984,-113.008l-79.0236 0 0 217.008zm0 -283.024l72 0c95.0236,0 174.016,-37.9843 174.016,-129.984 0,-98.0157 -82.9921,-130.992 -173.008,-130.992 -30.9921,0 -56,0.976378 -73.0079,4l0 256.976z" id="glyph1221"></glyph> <glyph unicode="D" d="M76 2.01575c44,-5.00787 96,-8.0315 158.016,-8.0315 130.992,0 234.992,34.0157 297.984,97.0079 62.9921,62.0157 97.0079,152 97.0079,262.016 0,109.008 -34.9921,186.992 -94.9921,241.984 -59.0236,55.0236 -148,84 -273.008,84 -69.0079,0 -132,-5.98425 -185.008,-13.9843l0 -662.992zm86.9921 598.992c23.0236,5.00787 57.0079,9.00787 102.016,9.00787 184,0 273.984,-101.008 273.008,-260 0,-182.016 -101.008,-286.016 -287.024,-286.016 -33.9843,0 -65.9843,1.00787 -88,5.00787l0 532z" id="glyph1223"></glyph> <glyph unicode="E" d="M425.008 388l-262.016 0 0 213.008 277.008 0 0 73.0079 -364 0 0 -674.016 378.992 0 0 73.0079 -292 0 0 242.992 262.016 0 0 72z" id="glyph1225"></glyph> <glyph unicode="O" d="M349.008 685.008c-180,0 -313.008,-140 -313.008,-354.016 0,-204 125.008,-341.984 302.992,-341.984 172,0 313.008,122.992 313.008,354.992 0,200 -118.992,341.008 -302.992,341.008zm-4 -70.9921c145.008,0 214.992,-140 214.992,-274.016 0,-153.008 -77.9843,-280 -216,-280 -137.008,0 -214.992,129.008 -214.992,273.008 0,148 72,281.008 216,281.008z" id="glyph1227"></glyph> <glyph unicode="P" d="M76 0l86.9921 0 0 270.016c20,-5.00787 44,-6.01575 70.0157,-6.01575 85.0079,0 160,25.0079 205.984,74.0157 34.0157,34.9921 52,82.9921 52,144 0,60 -21.9843,108.976 -58.9921,140.976 -40,36 -102.992,56 -189.008,56 -69.9843,0 -124.976,-5.98425 -166.992,-12.9764l0 -666.016zm86.9921 602.992c15.0236,4 44,7.02362 82.0157,7.02362 96,0 158.992,-43.0236 158.992,-132 0,-93.0079 -64,-144 -169.008,-144 -28.9764,0 -52.9764,1.98425 -72,6.99213l0 261.984z" id="glyph1229"></glyph> <glyph unicode="R" d="M76 0l86.9921 0 0 292 82.0157 0c78.9921,-2.99213 114.992,-37.9843 134.992,-130.992 18.9921,-84 34.0157,-142.016 45.0079,-161.008l89.9843 0c-13.9843,26.0157 -29.9843,90.9921 -52,185.008 -16,69.9843 -46.9921,117.984 -98.9921,136l0 2.99213c70.9921,24 126.992,82.9921 126.992,172 0,52 -18.9921,98.0157 -52.9764,128 -42.0157,38.0157 -102.016,54.9921 -195.024,54.9921 -60,0 -122.992,-4.97638 -166.992,-13.9843l0 -665.008zm86.9921 604c14.0157,4 44,8 86.0157,8 92,-1.00787 154.992,-38.9921 154.992,-125.984 0,-77.0079 -58.9921,-128 -152,-128l-89.0079 0 0 245.984z" id="glyph1231"></glyph> <glyph unicode="T" d="M204 0l88 0 0 600 206.016 0 0 74.0157 -499.024 0 0 -74.0157 205.008 0 0 -600z" id="glyph1233"></glyph> <glyph unicode="U" d="M74.9921 674.016l0 -397.008c0,-209.008 104,-288 242.016,-288 145.984,0 254.992,85.0079 254.992,292l0 393.008 -88 0 0 -399.024c0,-148.976 -64,-214.992 -164,-214.992 -89.9843,0 -157.008,64 -157.008,214.992l0 399.024 -88 0z" id="glyph1235"></glyph> <glyph unicode="Z" d="M30.0157 0l492 0 0 73.0079 -377.008 0 0 2.99213 372 545.008 0 53.0079 -454.992 0 0 -73.0079 341.984 0 0 -2.99213 -373.984 -547.024 0 -50.9921z" id="glyph1237"></glyph> <glyph unicode="a" d="M421.008 0c-6.01575,33.0079 -8,74.0157 -8,116l0 181.008c0,97.0079 -36,197.984 -184,197.984 -61.0079,0 -118.992,-16.9764 -158.992,-42.9921l20 -57.9843c33.9843,21.9843 80.9764,36 125.984,36 98.9921,0 110.016,-72 110.016,-112l0 -10.0157c-187.024,1.00787 -291.024,-62.9921 -291.024,-180 0,-69.9843 50.0157,-138.992 148,-138.992 69.0079,0 121.008,33.9843 148,72l3.02362 0 6.99213 -61.0079 80 0zm-93.0079 162.992c0,-8.97638 -1.98425,-18.9921 -5.00787,-28 -13.9843,-40.9764 -53.9843,-80.9764 -116.976,-80.9764 -45.0079,0 -83.0236,26.9921 -83.0236,84 0,93.9843 109.008,110.992 205.008,108.976l0 -84z" id="glyph1239"></glyph> <glyph unicode="b" d="M145.008 0l4 80 2.99213 0c36,-64 92,-90.9921 162.016,-90.9921 108,0 216.976,85.9843 216.976,258.992 1.00787,146.992 -84,246.992 -204,246.992 -77.9843,0 -133.984,-34.9921 -164.976,-88.9764l-2.01575 0 0 304 -86.9921 0 0 -585.008c0,-42.9921 -2.01575,-92 -4,-125.008l76 0zm14.9921 281.008c0,13.9843 2.99213,25.9843 5.00787,36 17.9843,66.9921 73.9843,108 133.984,108 94.0157,0 144,-82.9921 144,-180 0,-110.992 -54.9921,-186.016 -146.992,-186.016 -64,0 -114.992,42.0157 -132,103.024 -1.98425,9.98425 -4,20.9764 -4,32l0 86.9921z" id="glyph1241"></glyph> <glyph unicode="c" d="M402.992 84c-24.9764,-10.9921 -57.9843,-24 -108,-24 -96,0 -168,69.0079 -168,181.008 0,101.008 60,182.992 171.024,182.992 48,0 80.9764,-10.9921 101.984,-22.9921l20 68c-24,12 -69.9843,25.0079 -121.984,25.0079 -158.016,0 -260,-108 -260,-257.008 0,-148 94.9921,-247.024 240.976,-247.024 65.0079,0 116,16.0315 139.024,28.0315l-15.0236 65.9843z" id="glyph1243"></glyph> <glyph unicode="d" d="M402.992 710.016l0 -289.008 -1.98425 0c-22.0157,38.9921 -72,73.9843 -146.016,73.9843 -117.984,0 -217.984,-98.9921 -216.976,-260 0,-146.992 89.9843,-245.984 206.992,-245.984 78.9921,0 137.984,41.0079 165.008,94.9921l1.98425 0 4 -84 78.9921 0c-2.99213,33.0079 -4,82.0157 -4,125.008l0 585.008 -88 0zm0 -507.024c0,-13.9843 -0.976378,-25.9843 -4,-37.9843 -16,-66.0157 -69.9843,-105.008 -128.976,-105.008 -95.0236,0 -143.024,81.0079 -143.024,178.992 0,107.024 54.0157,187.024 145.008,187.024 66.0157,0 114.016,-46.0157 126.992,-102.016 3.02362,-10.9921 4,-25.9843 4,-37.0079l0 -84z" id="glyph1245"></glyph> <glyph unicode="e" d="M462.016 226.016c0.976378,8.97638 2.99213,22.9921 2.99213,40.9764 0,89.0079 -42.0157,228 -200,228 -141.008,0 -226.992,-114.992 -226.992,-260.976 0,-146.016 88.9764,-244.031 237.984,-244.031 77.0079,0 130.016,16.0315 161.008,30.0157l-14.9921 62.9921c-33.0079,-13.9843 -71.0236,-24.9764 -134.016,-24.9764 -88,0 -164,48.9764 -165.984,168l340 0zm-339.024 62.9921c7.02362,61.0079 46.0157,142.992 135.024,142.992 98.9921,0 122.992,-86.9921 121.984,-142.992l-257.008 0z" id="glyph1247"></glyph> <glyph unicode="f" d="M169.008 0l0 417.008 117.008 0 0 66.9921 -117.008 0 0 26.0157c0,73.9843 18.9921,140 93.9843,140 25.0079,0 43.0236,-5.00787 56,-11.0236l12 68c-16.9764,7.02362 -44,14.0157 -74.9921,14.0157 -41.0079,0 -85.0079,-13.0079 -117.984,-45.0079 -41.0079,-38.9921 -56,-101.008 -56,-169.008l0 -22.9921 -68 0 0 -66.9921 68 0 0 -417.008 86.9921 0z" id="glyph1249"></glyph> <glyph unicode="g" d="M413.008 484l-4 -73.0079 -2.01575 0c-20.9764,40 -66.9921,84 -150.992,84 -110.992,0 -217.984,-92.9764 -217.984,-256.976 0,-134.016 85.9843,-236 205.984,-236 74.9921,0 126.992,36 154.016,80.9764l1.98425 0 0 -53.9843c0,-122.016 -65.9843,-169.008 -156,-169.008 -60,0 -109.984,17.9843 -141.984,37.9843l-22.0157 -66.9921c38.9921,-25.9843 102.992,-40 161.008,-40 61.0079,0 129.008,14.0157 176,58.0157 46.9921,41.9843 69.0079,109.984 69.0079,221.008l0 280.976c0,59.0236 1.98425,98.0157 4,133.008l-77.0079 0zm-14.0157 -277.984c0,-15.0236 -1.98425,-32 -6.99213,-47.0236 -18.9921,-56 -68,-89.9843 -121.984,-89.9843 -95.0236,0 -143.024,78.9921 -143.024,173.984 0,112 60,183.024 144,183.024 64,0 107.024,-42.0157 123.024,-93.0079 4,-12 4.97638,-25.0079 4.97638,-40l0 -86.9921z" id="glyph1251"></glyph> <glyph unicode="i" d="M161.008 0l0 484 -88 0 0 -484 88 0zm-44 674.992c-32,0 -54.9921,-24 -54.9921,-54.9921 0,-29.9843 21.9843,-53.9843 52.9764,-53.9843 35.0236,0 57.0079,24 56,53.9843 0,30.9921 -20.9764,54.9921 -53.9843,54.9921z" id="glyph1253"></glyph> <glyph unicode="k" d="M160 710.016l-86.9921 0 0 -710.016 86.9921 0 0 182.016 45.0079 49.9843 166.992 -232 106.992 0 -212.976 285.008 186.992 198.992 -106.016 0 -141.984 -166.992c-14.0157,-17.0079 -30.9921,-38.0157 -42.9921,-54.9921l-2.01575 0 0 448z" id="glyph1255"></glyph> <glyph unicode="l" d="M73.0079 0l88 0 0 710.016 -88 0 0 -710.016z" id="glyph1257"></glyph> <glyph unicode="m" d="M73.0079 0l85.9843 0 0 292c0,14.9921 2.01575,30.0157 7.02362,42.9921 13.9843,44 53.9843,88 108.976,88 67.0236,0 101.008,-56 101.008,-132.976l0 -290.016 86.0157 0 0 298.992c0,16 2.99213,32 6.99213,44 14.9921,43.0236 53.9843,80 104,80 70.9921,0 105.008,-56 105.008,-148.976l0 -274.016 85.9843 0 0 285.008c0,168 -94.9921,209.984 -158.992,209.984 -46.0157,0 -78.0157,-12 -106.992,-33.9843 -20,-14.9921 -39.0236,-36 -54.0157,-62.9921l-1.98425 0c-21.0079,56.9764 -71.0236,96.9764 -137.008,96.9764 -80,0 -125.008,-42.9921 -152,-88.9764l-2.99213 0 -4 77.9843 -77.0079 0c2.99213,-40 4,-81.0079 4,-130.992l0 -353.008z" id="glyph1259"></glyph> <glyph unicode="n" d="M73.0079 0l88 0 0 290.992c0,15.0236 1.98425,30.0157 5.98425,41.0079 15.0236,49.0079 60,90.0157 118.016,90.0157 82.9921,0 112,-65.0079 112,-143.024l0 -278.992 88 0 0 289.008c0,165.984 -104,205.984 -170.992,205.984 -80,0 -136,-44.9764 -160,-90.9921l-2.01575 0 -5.00787 80 -77.9843 0c2.99213,-40 4,-81.0079 4,-130.992l0 -353.008z" id="glyph1261"></glyph> <glyph unicode="o" d="M278.016 494.992c-134.016,0 -240,-94.9921 -240,-256.976 0,-153.008 100.976,-249.008 232,-249.008 116.976,0 240.976,77.9843 240.976,257.008 0,148 -93.9843,248.976 -232.976,248.976zm-2.01575 -65.9843c104,0 145.008,-104 145.008,-186.016 0,-108.976 -62.9921,-188 -146.992,-188 -86.0157,0 -147.024,80 -147.024,186.016 0,92 45.0079,188 149.008,188z" id="glyph1263"></glyph> <glyph unicode="p" d="M73.0079 -198.016l86.9921 0 0 263.024 2.01575 0c28.9764,-48 84.9764,-76 148.976,-76 114.016,0 220,85.9843 220,260 0,146.992 -88,245.984 -204.976,245.984 -79.0236,0 -136,-34.9921 -172,-93.9843l-2.01575 0 -4 82.9921 -78.9921 0c1.98425,-45.9843 4,-96 4,-157.984l0 -524.031zm86.9921 478.016c0,12 2.99213,25.0079 6.01575,36 16.9764,66.0157 72.9764,109.008 132.976,109.008 93.0079,0 144,-82.9921 144,-180 0,-110.992 -53.9843,-186.992 -146.992,-186.992 -62.9921,0 -116,41.9843 -132,102.992 -1.98425,10.9921 -4,22.9921 -4,36l0 82.9921z" id="glyph1265"></glyph> <glyph unicode="r" d="M73.0079 0l86.9921 0 0 258.016c0,14.9921 2.01575,28.9764 4,40.9764 12,66.0157 56,113.008 118.016,113.008 12,0 20.9764,-1.00787 29.9843,-2.99213l0 82.9921c-8,2.01575 -14.9921,2.99213 -25.0079,2.99213 -58.9921,0 -112,-40.9764 -133.984,-105.984l-4 0 -2.99213 94.9921 -77.0079 0c2.99213,-45.0079 4,-93.9843 4,-150.992l0 -333.008z" id="glyph1267"></glyph> <glyph unicode="s" d="M38.9921 22.9921c34.0157,-20 83.0236,-33.0079 136,-33.0079 115.024,0 181.008,60.0315 181.008,145.008 0,72 -42.9921,114.016 -126.992,146.016 -62.9921,24 -92,41.9843 -92,81.9843 0,36 29.0079,66.0157 81.0079,66.0157 44.9764,0 80,-16 98.9921,-28l21.9843 64c-26.9921,16 -69.9843,29.9843 -118.992,29.9843 -104,0 -166.992,-64 -166.992,-141.984 0,-58.0157 41.0079,-106.016 128,-137.008 65.0079,-24 89.9843,-46.9921 89.9843,-89.0079 0,-40 -29.9843,-72 -93.9843,-72 -44,0 -90.0157,18.0157 -116,35.0236l-22.0157 -67.0236z" id="glyph1269"></glyph> <glyph unicode="t" d="M93.0079 600l0 -116 -74.9921 0 0 -66.9921 74.9921 0 0 -264c0,-57.0079 9.00787,-100 33.9843,-126.016 21.0079,-24 54.0157,-37.0079 95.0236,-37.0079 33.9843,0 60.9764,5.00787 77.9843,12.0315l-4 65.9843c-10.9921,-2.99213 -28,-5.98425 -50.9921,-5.98425 -49.0079,0 -66.0157,33.9843 -66.0157,93.9843l0 261.008 126.016 0 0 66.9921 -126.016 0 0 138.992 -85.9843 -22.9921z" id="glyph1271"></glyph> <glyph unicode="u" d="M478.016 484l-88 0 0 -297.008c0,-16 -3.02362,-32 -8,-44.9764 -16,-39.0236 -57.0079,-80 -116,-80 -80,0 -108,61.9843 -108,153.984l0 268 -88 0 0 -282.992c0,-170.016 90.9921,-212 166.992,-212 85.9843,0 137.008,50.9921 160,89.9843l1.98425 0 5.00787 -78.9921 78.0157 0c-3.02362,38.0157 -4,82.0157 -4,132l0 352z" id="glyph1273"></glyph> <glyph unicode="v" d="M13.0079 484l184 -484 84 0 189.984 484 -92 0 -93.9843 -272c-16,-44 -30.0157,-84 -41.0079,-124l-2.99213 0c-10.0157,40 -22.9921,80 -38.9921,124l-95.0236 272 -93.9843 0z" id="glyph1275"></glyph> <glyph unicode="y" d="M9.00787 484l178.992 -445.984c4,-11.0236 6.01575,-18.0157 6.01575,-23.0236 0,-4.97638 -3.02362,-12 -7.02362,-21.0079 -20,-44.9764 -49.9843,-78.9921 -73.9843,-97.9843 -26.0157,-22.0157 -54.9921,-36 -77.0079,-42.9921l22.0157 -74.0157c21.9843,4 64.9764,18.9921 108,57.0079 60,52 102.992,137.008 165.984,302.992l132 345.008 -93.0079 0 -96 -284c-12,-34.9921 -21.9843,-72 -30.9921,-101.008l-1.98425 0c-8,29.0079 -20,67.0236 -31.0236,99.0236l-105.984 285.984 -96 0z" id="glyph1277"></glyph> <glyph unicode="á" d="M421.008 0c-6.01575,33.0079 -8,74.0157 -8,116l0 181.008c0,97.0079 -36,197.984 -184,197.984 -61.0079,0 -118.992,-16.9764 -158.992,-42.9921l20 -57.9843c33.9843,21.9843 80.9764,36 125.984,36 98.9921,0 110.016,-72 110.016,-112l0 -10.0157c-187.024,1.00787 -291.024,-62.9921 -291.024,-180 0,-69.9843 50.0157,-138.992 148,-138.992 69.0079,0 121.008,33.9843 148,72l3.02362 0 6.99213 -61.0079 80 0zm-93.0079 162.992c0,-8.97638 -1.98425,-18.9921 -5.00787,-28 -13.9843,-40.9764 -53.9843,-80.9764 -116.976,-80.9764 -45.0079,0 -83.0236,26.9921 -83.0236,84 0,93.9843 109.008,110.992 205.008,108.976l0 -84zm-53.0079 530.016l-88 -142.992 63.0236 0 121.984 142.992 -97.0079 0z" id="glyph1279"></glyph> <glyph unicode="í" d="M161.008 0l0 484 -88 0 0 -484 88 0zm-6.01575 693.008l-88 -142.992 63.0236 0 121.984 142.992 -97.0079 0z" id="glyph1281"></glyph> <glyph unicode="ľ" d="M240 522.016c14.9921,12.9764 64,48.9764 64,121.984 0,34.9921 -17.9843,64 -34.9921,74.9921l-62.9921 -13.9843c16.9764,-14.9921 30.9921,-40 30.9921,-65.0079 0,-41.0079 -20,-69.0079 -36,-89.0079l38.9921 -28.9764zm-166.992 -522.016l88 0 0 710.016 -88 0 0 -710.016z" id="glyph1283"></glyph> <glyph unicode="ž" d="M18.0157 0l392.976 0 0 70.0157 -282.992 0 0 1.98425c22.0157,25.0079 42.0157,49.0079 62.0157,76l216 281.008 0.976378 54.9921 -368.976 0 0 -70.9921 261.984 0 0 -2.01575c-21.9843,-25.9843 -41.9843,-48.9764 -62.9921,-74.9921l-218.992 -285.008 0 -50.9921zm240.976 550.016l94.0157 142.992 -66.0157 0 -58.9921 -94.9921 -1.98425 0 -59.0236 94.9921 -68 0 96 -142.992 64 0z" id="glyph1285"></glyph> </font> <font id="FontID0" font-variant="normal" font-style="normal" font-weight="700" vert-origin-x="45" vert-origin-y="90" vert-adv-y="90" style="font-style:normal;font-variant:normal;font-weight:700"> <glyph unicode="+" d="M249.016 531.985l0 -217.991 -209.014 0 0 -93.9872 209.014 0 0 -220.007 97.9873 0 0 220.007 208.983 0 0 93.9872 -208.983 0 0 217.991 -97.9873 0z" id="glyph1294"></glyph> <glyph unicode="." d="M138.993 -11.008c54.0004,0 90.0007,39.0003 90.0007,92.0086 0,54.9926 -36.0003,93.0007 -88.985,93.0007 -53.0083,0 -90.0007,-39.0003 -90.0007,-93.0007 0,-53.0083 36.9924,-92.0086 88.985,-92.0086z" id="glyph1296"></glyph> <glyph unicode="0" d="M280.009 660.997c-168.005,0 -248.008,-149.013 -248.008,-336.987 1.00791,-184.006 74.9945,-335.003 243,-335.003 165.989,0 247,137.989 247,339.003 0,177.99 -68.0021,332.987 -241.992,332.987zm-2.01581 -114.996c61.0098,0 92.0029,-76.0024 92.0029,-220.007 0,-148.005 -32.001,-221.991 -90.995,-221.991 -58.994,0 -94.9951,70.9944 -93.9872,220.007 -1.00791,150.997 36.9775,221.991 92.9793,221.991z" id="glyph1298"></glyph> <glyph unicode="1" d="M236.007 0l146.997 0 0 650.005 -126.02 0 -171.974 -80.0025 24.9772 -113.988 124.004 58.994 2.01581 0 0 -515.008z" id="glyph1300"></glyph> <glyph unicode="2" d="M503.008 0l0 125.012 -245.016 0 0 1.98431 60.0019 50.0173c94.0187,83.9711 173.013,170.998 173.013,279.977 0,118.019 -81.0104,204.006 -228.007,204.006 -88.0028,0 -164.005,-29.9852 -213.015,-66.9942l43.025 -109.011c33.9853,26.0166 82.9947,54.0174 138.997,54.0174 74.9945,0 106.995,-42.0171 106.995,-94.9951 -2.01581,-76.0024 -70.9944,-149.013 -213.015,-276.009l-84.0026 -76.0024 0 -92.0029 461.022 0z" id="glyph1302"></glyph> <glyph unicode="4" d="M455.006 0l0 154.997 77.9867 0 0 113.988 -77.9867 0 0 381.02 -186.022 0 -245.992 -396.012 0 -98.9952 288.009 0 0 -154.997 144.005 0zm-289.993 268.985l0 2.01581 86.9949 141.989c21.9849,41.0092 38.9934,79.0261 60.0019,121.012l4.00013 0c-3.02372,-41.9856 -5.00803,-81.9868 -5.00803,-121.012l0 -144.005 -145.989 0z" id="glyph1304"></glyph> <glyph unicode="6" d="M456.991 659.013c-14.9926,0.976409 -32.9774,0.976409 -60.9783,-1.00791 -102.019,-5.00803 -186.022,-37.009 -251,-96.003 -70.018,-65.0099 -115.027,-166.997 -115.027,-289.017 0,-154.997 85.0106,-283.977 258.024,-283.977 140.981,0 239.976,105.988 239.976,235 0,134.996 -91.9714,212.007 -200.983,212.007 -61.0098,0 -105.988,-19.0242 -137.989,-52.0016l-3.02372 0c17.0084,76.0024 77.0103,144.981 212.007,155.973 24.0008,2.01581 42.0171,3.02372 58.994,2.01581l0 117.012zm-170.998 -558.002c-68.9786,0 -101.987,61.9862 -104.98,130.996 0,17.9848 1.98431,29.9852 5.98444,37.9854 14.9926,33.0089 49.0094,58.0176 89.9871,58.0176 65.0099,0 97.0109,-52.0016 97.0109,-112.004 0,-66.0178 -33.9853,-114.996 -88.0028,-114.996z" id="glyph1306"></glyph> <glyph unicode="7" d="M49.0094 650.005l0 -125.012 297.994 0 0 -1.98431 -268.008 -523.009 161.013 0 267.977 554.002 0 96.003 -458.975 0z" id="glyph1308"></glyph> <glyph unicode="8" d="M272.985 -10.9925c151.028,0 250.024,78.9946 250.024,196.983 0,84.0026 -56.0018,138.02 -118.996,162.021l0 2.99222c64.002,32.001 93.9872,86.9949 93.9872,142.997 0,78.9946 -62.9941,166.997 -214.999,166.997 -129.988,0 -229.015,-73.0102 -229.015,-182.998 0,-57.0097 31.0246,-109.988 94.0187,-141.989l0 -3.02372c-70.9944,-30.9931 -116.004,-84.9791 -116.004,-162.997 0,-88.0028 76.0024,-180.982 240.984,-180.982zm6.01594 104.98c-57.0097,0 -93.0108,44.0014 -92.0029,91.0265 0,46.9936 29.0088,82.9947 78.9946,96.9794 60.0019,-16.0005 102.019,-49.9858 102.019,-106.995 0,-45.9857 -35.0247,-81.0104 -89.0107,-81.0104zm-2.99222 464.015c56.0018,0 78.9946,-40.0013 78.9946,-80.0025 0,-41.0092 -30.9931,-73.0102 -66.0178,-82.9947 -51.9701,16.0005 -91.9714,44.0014 -91.9714,88.0028 0,40.9777 26.993,74.9945 78.9946,74.9945z" id="glyph1310"></glyph> <glyph unicode="9" d="M89.9871 -9.00816c17.0084,-0.976409 43.025,-1.98431 69.01,0 101.011,4.00013 185.99,34.9932 248.008,90.995 70.9944,65.0099 113.988,164.005 113.988,299.002 0,152.005 -78.9946,280.009 -245.992,280.009 -142.997,0 -245.016,-106.995 -245.016,-233.992 0,-126.02 93.0108,-202.999 203.03,-202.999 58.994,0 100.98,17.0084 129.988,46.9936l2.99222 -1.00791c-12.0004,-48.9779 -40.0013,-90.995 -81.9868,-120.004 -34.9932,-24.0008 -82.0183,-36.9775 -128.004,-40.0013 -30.0167,-1.98431 -46.9936,-1.98431 -66.0178,0l0 -118.996zm181.014 559.01c69.01,0 94.9951,-68.0021 94.9951,-137.012 0,-18.9927 -2.99222,-28.9773 -8.00025,-37.9854 -13.9847,-22.9929 -42.9935,-42.9935 -84.0026,-42.9935 -61.9862,0 -92.0029,48.0015 -92.0029,104.003 -0.976409,67.9706 37.009,113.988 89.0107,113.988z" id="glyph1312"></glyph> <glyph unicode="A" d="M416.011 173.009l51.9925 -173.009 163.986 0 -208.986 673.99 -200.009 0 -205.986 -673.99 157.985 0 48.0004 173.009 193.017 0zm-171.001 114.001l39.9924 142.985c11.008,39.0003 21.0002,90.0007 30.9924,129.993l2.00789 0c9.9922,-39.9924 21.9923,-89.9771 33.9924,-129.993l42.0003 -142.985 -148.985 0z" id="glyph1314"></glyph> <glyph unicode="I" d="M66.0005 673.99l0 -673.99 153.001 0 0 673.99 -153.001 0z" id="glyph1316"></glyph> <glyph unicode="J" d="M198.002 249.994c0,-105.001 -39.9924,-133.985 -104.009,-133.985 -30.0002,0 -57.0004,4.98429 -78.0006,12.0001l-16.9844 -123.001c30.0002,-10.0158 75.9927,-16.0159 111.001,-16.0159 147.993,0 240.002,67.0163 240.002,259.018l0 425.98 -152.009 0 0 -423.995z" id="glyph1318"></glyph> <glyph unicode="M" d="M645.997 0l149.009 0 -37.016 673.99 -198.994 0 -72.0006 -223.986c-21.9923,-75.0006 -45.0004,-164.009 -63.9926,-242.01l-3.00002 0c-15.0001,79.0164 -36.0003,163.017 -57.0004,241.018l-66.0005 224.978 -203.009 0 -42.9925 -673.99 141.001 0 12.0001 255.994c5.00791,84.0007 8.00794,188.009 12.0001,279.002l2.00789 0c15.9923,-87.9928 39.0003,-183.994 60.9926,-262.986l72.0006 -261.002 119.009 0 81.9928 262.986c25.9845,79.0164 54.0004,175.017 75.0006,261.002l3.00002 0c0,-97.985 3.00002,-195.994 6.00005,-276.994l9.9922 -258.002z" id="glyph1320"></glyph> <glyph unicode="a" d="M476.012 0c-5.00791,27.0002 -7.0158,72.0006 -7.0158,119.009l0 169.986c0,115.017 -51.9925,211.017 -214.986,211.017 -89.0086,0 -156.001,-24.0002 -190.017,-43.0161l28.016 -97.985c31.9845,19.9844 84.9928,36.9924 135.001,36.9924 75.0006,0 88.985,-36.9924 88.985,-63.0005l0 -6.99218c-172.986,0.992134 -286.987,-60.0005 -286.987,-187.017 0,-78.0006 58.9847,-150.001 157.985,-150.001 58.0162,0 108.001,21.0002 140.009,60.0005l3.00002 0 9.00007 -48.9925 137.009 0zm-155.009 177.994c0,-9.00007 -0.992134,-18.0001 -3.00002,-25.9845 -9.9922,-31.016 -41.0082,-56.0083 -78.9927,-56.0083 -34.016,0 -60.0005,18.9923 -60.0005,57.9926 0,59.0083 61.9847,78.0006 141.993,77.0085l0 -53.0083z" id="glyph1322"></glyph> <glyph unicode="b" d="M186.016 0l5.98425 68 2.01575 0c34.9921,-57.9843 89.9843,-78.9921 146.992,-78.9921 112,0 224,88 224,264 1.00787,149.984 -85.0079,246.992 -202.016,246.992 -68,0 -118.992,-26.9921 -148,-69.0079l-1.98425 0 0 279.024 -152 0 0 -564c0,-55.0236 -2.01575,-114.016 -4,-146.016l129.008 0zm26.9921 280c0,10.0157 1.00787,18.9921 2.99213,28 10.0157,44 48,74.9921 89.0079,74.9921 70.9921,0 105.008,-60 105.008,-136 0,-88 -40,-137.984 -105.008,-137.984 -44,0 -78.9921,30.9921 -89.0079,72 -1.98425,8 -2.99213,17.0079 -2.99213,26.9921l0 72z" id="glyph1324"></glyph> <glyph unicode="e" d="M492.996 195.994c2.00789,11.008 5.00791,34.016 5.00791,60.0005 0,121.017 -60.0005,244.018 -218.01,244.018 -169.986,0 -246.994,-137.009 -246.994,-261.002 0,-153.001 95.0086,-249.002 261.002,-249.002 66.0005,0 126.993,9.9922 177.001,30.0002l-20.008 102.993c-40.9846,-12.9922 -82.9849,-20.008 -135.001,-20.008 -70.9848,0 -132.993,30.0002 -138.001,93.0007l315.002 0zm-315.995 104.009c3.99216,41.0082 30.0002,99.0008 93.9929,99.0008 70.0163,0 86.0086,-62.0084 86.0086,-99.0008l-180.001 0z" id="glyph1326"></glyph> <glyph unicode="g" d="M396.003 489.004l-5.00791 -57.9926 -1.98427 0c-25.0159,39.9924 -67.0163,69.0005 -134.009,69.0005 -120.001,0 -222.002,-100.017 -222.002,-257.01 0,-141.001 86.0086,-239.01 207.002,-239.01 56.0083,0 102.993,23.0081 132.001,64.0163l2.00789 0 0 -32.0081c0,-90.0007 -55.0162,-129.001 -127.017,-129.001 -57.0004,0 -111.001,18.9923 -141.993,36.9924l-30.0002 -114.993c44.0082,-24.9923 111.993,-38.0082 176.009,-38.0082 72.0006,0 144.993,14.008 198.994,60.0005 54.9926,49.0161 73.9848,126.001 73.9848,220.017l0 273.002c0,72.9927 2.00789,114.001 4.01578,144.993l-132.001 0zm-24.0002 -270.994c0,-13.0159 -0.992134,-29.0081 -5.00791,-40.0161 -9.9922,-36.0003 -40.9846,-61.9847 -79.9849,-61.9847 -64.0163,0 -100.017,57.0004 -100.017,129.993 0,89.0086 45.0004,138.993 100.017,138.993 42.0003,0 70.9848,-27.0002 81.9928,-66.9927 2.00789,-8.00794 3.00002,-18.0001 3.00002,-27.9923l0 -72.0006z" id="glyph1328"></glyph> <glyph unicode="i" d="M213.002 0l0 489.004 -152.009 0 0 -489.004 152.009 0zm-75.9927 702.006c-49.0161,0 -81.0006,-33.0003 -80.0085,-77.0085 -0.992134,-42.0003 30.9924,-75.9927 78.9927,-75.9927 50.0083,0 82.0164,33.9924 82.0164,75.9927 -1.01576,44.0082 -32.0081,77.0085 -81.0006,77.0085z" id="glyph1330"></glyph> <glyph unicode="j" d="M-24.9923 -209.01c72.9927,0 144.001,18.0001 189.001,60.0005 45.0004,42.0003 69.0005,107.009 69.0005,214.017l0 423.995 -153.001 0 0 -387.995c0,-97.0165 -8.00794,-136.017 -30.0002,-159.001 -19.0159,-20.008 -50.0083,-29.0081 -90.0007,-32.0081l15.0001 -119.009zm181.986 911.015c-49.9846,0 -81.0006,-33.0003 -81.0006,-77.0085 0,-42.0003 31.016,-75.9927 79.0164,-75.9927 51.0004,0 81.9928,33.9924 81.9928,75.9927 -0.992134,44.0082 -30.9924,77.0085 -80.0085,77.0085z" id="glyph1332"></glyph> <glyph unicode="k" d="M213.002 709.99l-152.009 0 0 -709.99 152.009 0 0 153.001 39.0003 48.0004 117.993 -201.002 186.994 0 -199.986 291.002 174.994 198.002 -183.001 0 -99.0008 -147.001c-12.0001,-18.9923 -24.0002,-39.0003 -34.9845,-59.0083l-2.00789 0 0 426.995z" id="glyph1334"></glyph> <glyph unicode="l" d="M60.9926 0l152.009 0 0 709.99 -152.009 0 0 -709.99z" id="glyph1336"></glyph> <glyph unicode="n" d="M60.9926 0l152.009 0 0 282.002c0,14.008 2.00789,29.0081 6.00005,38.0082 9.9922,27.9923 35.0081,57.0004 77.0085,57.0004 54.9926,0 76.9849,-43.0161 76.9849,-106.017l0 -270.994 152.009 0 0 290.01c0,144.001 -75.0006,210.002 -174.994,210.002 -81.0006,0 -131.009,-47.0082 -151.017,-78.0006l-3.00002 0 -6.99218 66.9927 -132.001 0c2.00789,-42.9925 3.99216,-95.0086 3.99216,-156.001l0 -333.003z" id="glyph1338"></glyph> <glyph unicode="o" d="M294.002 500.012c-156.993,0 -261.002,-101.009 -261.002,-259.018 0,-157.985 110.009,-252.002 252.994,-252.002 131.009,0 258.002,82.0164 258.002,261.002 0,147.001 -99.9929,250.018 -249.994,250.018zm-3.99216 -108.001c69.0005,0 96.9929,-74.0085 96.9929,-147.001 0,-88.0164 -38.0082,-147.001 -96.9929,-147.001 -65.0084,0 -100.017,63.0005 -100.017,147.001 0,72.0006 27.0002,147.001 100.017,147.001z" id="glyph1340"></glyph> <glyph unicode="r" d="M60.9926 0l152.009 0 0 248.01c0,12.0001 0.992134,24.0002 3.00002,33.9924 9.9922,47.0082 48.0004,77.0085 104.009,77.0085 16.9844,0 30.0002,-2.00789 40.9846,-4.01578l0 143.009c-10.9843,2.00789 -18.0001,2.00789 -31.9845,2.00789 -47.0082,0 -107.009,-30.0002 -132.001,-101.009l-4.01578 0 -4.98429 90.0007 -131.009 0c2.00789,-42.0003 3.99216,-89.0086 3.99216,-161.009l0 -327.995z" id="glyph1342"></glyph> <glyph unicode="s" d="M33.0003 24.0002c36.9924,-20.008 93.9929,-33.9924 158.009,-33.9924 139.985,0 211.986,66.9927 211.986,157.985 -0.992134,72.0006 -39.9924,119.009 -132.993,151.017 -60.0005,21.0002 -78.9927,33.0003 -78.9927,55.9847 0,25.0159 21.0002,40.0161 57.9926,40.0161 42.0003,0 84.0007,-16.0159 105.993,-28.016l27.0002 105.001c-30.0002,15.0001 -81.0006,28.016 -138.001,28.016 -120.993,0 -198.994,-69.0005 -198.994,-160.017 -0.992134,-57.9926 38.0082,-112.985 138.993,-147.001 57.0004,-18.9923 72.0006,-30.9924 72.0006,-55.9847 0,-25.0159 -18.9923,-41.0082 -64.9848,-41.0082 -45.0004,0 -103.017,20.008 -131.009,36.9924l-27.0002 -108.993z" id="glyph1344"></glyph> <glyph unicode="t" d="M81.9928 594.997l0 -105.993 -64.9848 0 0 -111.993 64.9848 0 0 -200.009c0,-69.0005 14.008,-116.009 42.0003,-144.993 24.0002,-25.0159 65.0084,-42.0003 114.001,-42.0003 43.0161,0 79.0164,4.98429 99.0008,12.9922l-0.992134 114.993c-11.008,-1.98427 -26.0081,-3.99216 -45.0004,-3.99216 -45.9925,0 -60.0005,27.0002 -60.0005,86.0086l0 177.001 108.993 0 0 111.993 -108.993 0 0 139.985 -149.009 -33.9924z" id="glyph1346"></glyph> <glyph unicode="u" d="M522.004 489.004l-153.001 0 0 -291.002c0,-12.0001 -0.992134,-24.0002 -5.00791,-33.0003 -9.9922,-24.0002 -33.9924,-53.0083 -75.9927,-53.0083 -53.0083,0 -75.9927,43.0161 -75.9927,114.001l0 263.01 -153.001 0 0 -287.01c0,-150.993 72.9927,-213.002 171.993,-213.002 87.9928,0 134.009,50.0083 153.001,80.0085l3.00002 0 6.99218 -69.0005 132.001 0c-2.00789,41.0082 -3.99216,93.0007 -3.99216,156.993l0 332.01z" id="glyph1348"></glyph> <glyph unicode="v" d="M9.00007 489.004l177.994 -489.004 152.009 0 181.986 489.004 -159.993 0 -63.0005 -227.01c-10.9843,-42.0003 -18.9923,-78.9927 -27.0002,-118.985l-3.00002 0c-6.99218,39.0003 -15.9923,78.0006 -27.9923,118.985l-66.0005 227.01 -165.001 0z" id="glyph1350"></glyph> <glyph unicode="y" d="M6.01575 489.008l178.992 -446.992c5.98425,-12 6.99213,-20 6.99213,-25.0079 0,-6.99213 -2.99213,-14.9921 -8,-22.0157 -14.9921,-25.0079 -40,-49.0079 -62.9921,-61.0079 -22.9921,-13.9843 -46.9921,-22.9921 -66.0157,-25.9843l32 -129.008c38.0157,5.00787 94.0157,21.0079 147.024,66.9921 54.9921,49.0079 101.984,127.024 172,321.008l113.984 322.016 -162.992 0 -60 -240c-6.99213,-28 -14.9921,-65.0079 -22.0157,-90.9921l-2.99213 0c-5.98425,25.9843 -16,61.9843 -24,90.9921l-73.0079 240 -168.976 0z" id="glyph1352"></glyph> <glyph unicode="á" d="M476.012 0c-5.00791,27.0002 -7.0158,72.0006 -7.0158,119.009l0 169.986c0,115.017 -51.9925,211.017 -214.986,211.017 -89.0086,0 -156.001,-24.0002 -190.017,-43.0161l28.016 -97.985c31.9845,19.9844 84.9928,36.9924 135.001,36.9924 75.0006,0 88.985,-36.9924 88.985,-63.0005l0 -6.99218c-172.986,0.992134 -286.987,-60.0005 -286.987,-187.017 0,-78.0006 58.9847,-150.001 157.985,-150.001 58.0162,0 108.001,21.0002 140.009,60.0005l3.00002 0 9.00007 -48.9925 137.009 0zm-155.009 177.994c0,-9.00007 -0.992134,-18.0001 -3.00002,-25.9845 -9.9922,-31.016 -41.0082,-56.0083 -78.9927,-56.0083 -34.016,0 -60.0005,18.9923 -60.0005,57.9926 0,59.0083 61.9847,78.0006 141.993,77.0085l0 -53.0083zm-39.9924 524.012l-86.0086 -152.009 105.001 0 122.009 152.009 -141.001 0z" id="glyph1354"></glyph> <glyph unicode="í" d="M213.002 0l0 489.004 -152.009 0 0 -489.004 152.009 0zm-54.9926 702.006l-86.0086 -152.009 105.001 0 122.009 152.009 -141.001 0z" id="glyph1356"></glyph> <glyph unicode="ú" d="M522.004 489.004l-153.001 0 0 -291.002c0,-12.0001 -0.992134,-24.0002 -5.00791,-33.0003 -9.9922,-24.0002 -33.9924,-53.0083 -75.9927,-53.0083 -53.0083,0 -75.9927,43.0161 -75.9927,114.001l0 263.01 -153.001 0 0 -287.01c0,-150.993 72.9927,-213.002 171.993,-213.002 87.9928,0 134.009,50.0083 153.001,80.0085l3.00002 0 6.99218 -69.0005 132.001 0c-2.00789,41.0082 -3.99216,93.0007 -3.99216,156.993l0 332.01zm-207.002 213.002l-86.0086 -152.009 105.001 0 122.009 152.009 -141.001 0z" id="glyph1358"></glyph> <glyph unicode="š" d="M33.0003 24.0002c36.9924,-20.008 93.9929,-33.9924 158.009,-33.9924 139.985,0 211.986,66.9927 211.986,157.985 -0.992134,72.0006 -39.9924,119.009 -132.993,151.017 -60.0005,21.0002 -78.9927,33.0003 -78.9927,55.9847 0,25.0159 21.0002,40.0161 57.9926,40.0161 42.0003,0 84.0007,-16.0159 105.993,-28.016l27.0002 105.001c-30.0002,15.0001 -81.0006,28.016 -138.001,28.016 -120.993,0 -198.994,-69.0005 -198.994,-160.017 -0.992134,-57.9926 38.0082,-112.985 138.993,-147.001 57.0004,-18.9923 72.0006,-30.9924 72.0006,-55.9847 0,-25.0159 -18.9923,-41.0082 -64.9848,-41.0082 -45.0004,0 -103.017,20.008 -131.009,36.9924l-27.0002 -108.993zm237.994 525.996l100.017 152.009 -100.017 0 -49.9846 -87.0007 -2.00789 0 -51.0004 87.0007 -99.0008 0 99.0008 -152.009 102.993 0z" id="glyph1360"></glyph> <glyph unicode="ž" d="M22.0157 0l424.976 0 0 121.008 -234.992 0 0 1.98425c28,27.0236 53.0079,58.0157 80,90.0157l146.992 185.008 0 90.9921 -400 0 0 -120 215.024 0 0 -2.01575c-28,-29.9843 -50.0157,-53.9843 -78.0157,-86.9921l-153.984 -193.008 0 -86.9921zm268.976 550.016l100 152 -100 0 -49.9843 -87.0236 -2.01575 0 -50.9921 87.0236 -98.9921 0 98.9921 -152 102.992 0z" id="glyph1362"></glyph> </font>
</defs>
</svg>
